The Last Exorcism Part 2 2013 BRRip 480p x264 - VYTO [P2PDL]

seeders: 16
leechers: 1
Added on Jun 6, 2013 by ValidusVyto10874 in Movies
Torrent verified. Downloaded 909 times.

The Last Exorcism Part 2 2013 BRRip 480p x264 - VYTO [P2PDL] (Size: 308.18 MB)
  Connect With Us
  The Last Exorcism Part 2 2013 BRRip 480p x264 - VYTO
  Sample.mp4 6.44 MB
  Torrent downloaded from P2PDL.com.txt 33 bytes

Description

image


The Last Exorcism Part 2 2013 BRRip 480p x264 - VYTO


Genre: Horror | Thriller
Plot: As Nell Sweetzer tries to build a new life after the events of the first movie, the evil force
that once possessed her returns with an even more horrific plan.
Director: Ed Gass-Donnelly
Stars: Ashley Bell, Julia Garner, Spencer Treat Clark.
Rated: PG-13 for horror violence, terror and brief language.



Info:
http://www.imdb.com/title/tt2034139/


Trailer:
https://www.youtube.com/watch?v=UUBaMz61Mi0


Format : MPEG-4
Format profile : Base Media
Codec ID : isom
File size : 302 MiB
Duration : 1h 30mn
Overall bit rate mode : Variable
Overall bit rate : 467 Kbps
Source : UNRATED.720p.Bluray.x264-BLOW

Video
Format : AVC
Bit rate : 429 Kbps
Width : 720 pixels
Height : 304 pixels
Display aspect ratio : 2.35:1
Frame rate mode : Constant
Frame rate : 23.976 fps
Stream size : 274 MiB (91%)
Writing library : x264 core 130 r2273

Audio
Format : AAC
Bit rate mode : Variable
Bit rate : 39.6 Kbps
Channel(s) : 2 channels
Channel positions : Front: L R
Sampling rate : 48.0 KHz
Stream size : 25.6 MiB (8%)
Language : English

Subtitle : Yes(English)



Screenshots:


image
image
image
image
image
image
image
image
image
image


----------------------------------------------------------------------------------------------------


Encoded using revolutionary 10bit encoding, which enables us to provide you more crispier
and sharper images at small sizes, just make sure you follow our instructions without a fault.
Recommend to you to use latest version of VLC player. Install K-Lite Codec Pack or shark007 codecs
in case of any kind of problem in playback (For non-VLC Media Player users). Alternatively, install
Core AVC codecs, the fastest decoder that there is coupled with Community Center Codec Pack and play
on Windows Media Player Classic. Check sample to be sure.
Enjoy!

Encoder Notes: Looking For Early Access To Anything You Can Provide DVDScr, R5, DVDR, BluRay, Direct
Audio, Music Releases and Seedboxes. We require dedicated servers, so as to do more and fast releases of movies.
If You Got anything to offer contact us at "contact@p2pdl.com".



image


image

Related Torrents

torrent name size files age seed leech

Sharing Widget


Download torrent
308.18 MB
seeders:16
leechers:1
The Last Exorcism Part 2 2013 BRRip 480p x264 - VYTO [P2PDL]

Trackers

tracker name Status checked seeders leechers downloads
udp://tracker.openbittorrent.com:80/announce
outdated 02 Sep 2013 - - -
udp://tracker.publicbt.com:80/announce
outdated 02 Sep 2013 - - -
udp://tracker.istole.it:80/announce
outdated 02 Sep 2013 - - -
udp://tracker.seedceo.com:2710/announce
blocked 02 Sep 2013 - - -
udp://fr33dom.h33t.com:3310/announce
deleted 02 Sep 2013 - - -
udp://fr33domtracker.h33t.com:3310/announce
deleted 02 Sep 2013 - - -
http://newhorizons.twentyforty.me:2710/announce
pending 02 Sep 2013 10 1 909
http://p2pdl.com:2710/announce
pending 02 Sep 2013 0 0 0
udp://ipv4.tracker.harry.lu:80/announce
pending 02 Sep 2013 16 0 10
udp://11.rarbg.me:80/announce
pending 02 Sep 2013 10 0 10
ĀµTorrent compatible trackers list

Locations

name author
KickassTor.net ValidusVyto
Torrent hash: 648914097A7BCFC51E3F4272210D3243288AF45F

All Comments

audio
8/10
video
10/10
please, leave only comments related to that torrent
or sign-in
0
anonymous • 25 July 2013, 22:54 Show comment
got an email for copywrite infringement after downloaded
0
irritator3812 • 07 June 2013, 19:01
torrent downloaded
Show comment
audio: 8video: 10

User Opinions

Report a bug
dmca link