The Lone Ranger 2013 TS XViD- UNiQUE

seeders: 301
leechers: 130
Added on Jul 11, 2013 by Thhaque289398 in Movies
Torrent verified. Downloaded 11,669 times.

The Lone Ranger 2013 TS XViD- UNiQUE (Size: 1.46 GB)
  Lone.avi 1.45 GB
  sample.avi 8.56 MB
  Lone.nfo 2.54 KB

Description

The.Lone.Ranger.2013.TS.XViD- UNiQUE

image
Genre: Action | Adventure | Western
Year : 2013
Country : USA
Language : English
Runtime : 140 min.
Cast : Johnny Depp, Armie Hammer, William Fichtner
Director : Gore Verbinski
Quality : TS

Info

Format : AVI
Format/Info : Audio Video Interleave
File size : 1.45 GiB
Duration : 2h 20mn
Overall bit rate : 1 473 Kbps
Writing application : VirtualDubMod 1.5.10.2 (build 2540/release)
Writing library : VirtualDubMod build 2540/release

Video
ID : 0
Format : MPEG-4 Visual
Format profile : Advanced Simple@L5
Format settings, BVOP : 2
Format settings, QPel : No
Format settings, GMC : No warppoints
Format settings, Matrix : Default (H.263)
Muxing mode : Packed bitstream
Codec ID : XVID
Codec ID/Hint : XviD
Duration : 2h 20mn
Bit rate : 1 336 Kbps
Width : 720 pixels
Height : 338 pixels
Display aspect ratio : 2.130
Frame rate : 24.000 fps
Color space : YUV
Chroma subsampling : 4:2:0
Bit depth : 8 bits
Scan type : Progressive
Compression mode : Lossy
Bits/(Pixel*Frame) : 0.229
Stream size : 1.31 GiB (91%)
Writing library : XviD 64

Audio
ID : 1
Format : MPEG Audio
Format version : Version 1
Format profile : Layer 3
Codec ID : 55
Codec ID/Hint : MP3
Duration : 2h 20mn
Bit rate mode : Constant
Bit rate : 128 Kbps
Channel(s) : 2 channels
Sampling rate : 44.1 KHz
Compression mode : Lossy
Stream size : 129 MiB (9%)
Alignment : Split accross interleaves
Interleave, duration : 42 ms (1.00 video frame)
Interleave, preload duration : 500 ms

.: Plot :.
Native American warrior Tonto recounts the untold tales that transformed John Reid, a man of the law, into a legend of justice.

Screenshots:

image
image
image

Related Torrents

torrent name size files age seed leech

Sharing Widget


Download torrent
1.46 GB
seeders:301
leechers:130
The Lone Ranger 2013 TS XViD- UNiQUE

Trackers

tracker name Status checked seeders leechers downloads
udp://tracker.openbittorrent.com:80/announce
outdated 15 Sep 2013 - - -
udp://tracker.publicbt.com:80/announce
outdated 15 Sep 2013 - - -
udp://tracker.istole.it:80/announce
outdated 15 Sep 2013 - - -
http://fr33dom.h33t.com:3310/announce
deleted 15 Sep 2013 - - -
udp://fr33domtracker.h33t.com:3310/announce
deleted 15 Sep 2013 - - -
udp://10.rarbg.me:80/announce
pending 15 Sep 2013 109 32 10
udp://11.rarbg.me:80/announce
pending 15 Sep 2013 160 39 10
udp://9.rarbg.me:2710/announce
pending 15 Sep 2013 115 35 11669
udp://coppersurfer.tk:6969/announce
pending 15 Sep 2013 110 37 3344
udp://12.rarbg.me:80/announce
pending 15 Sep 2013 130 37 10
ĀµTorrent compatible trackers list

Locations

name author
KickassTor.net Thhaque
Torrent hash: F4A2033DE7E3616F2A9FCE45F3FEDE5574A66EFA

All Comments

audio
8/10
video
8/10
please, leave only comments related to that torrent
or sign-in
0
ManyWurlds56087 • 21 August 2013, 03:28
torrent downloaded
Show comment
audio: 8video: 8
Thumbs Up!
0
nokasopiate197 • 09 August 2013, 12:36
torrent downloaded
Show comment
audio: 5video: 5
not good
0
anonymous • 31 July 2013, 23:45 Show comment
found hd quality and english audio at hdfilms.phimkinhdi.org took me a while and also works with ps3, enjoy and thank me later!
0
cabluegrass11 • 25 July 2013, 23:26
torrent downloaded
Show comment
audio: 7video: 7
great
0
cabluegrass11 • 25 July 2013, 23:26
torrent downloaded
Show comment
great
0
cycleops81 • 25 July 2013, 12:17
torrent downloaded
Show comment
good
0
Kautya99 • 24 July 2013, 16:05
torrent downloaded
Show comment
audio: 7video: 5
Watchable..
Show More

User Opinions

Phoenix675588, OutLaw69804041, bustnbronco3289, MarcoVieira2528, tippud1908, dognutts493, rohit_mohta380, Bluenose1875179, iraleec171, mabanag38060 ... And 34 more
Report a bug
dmca link